Mortal Engines 2018 720p HDCAM x264 Dual Audio [Hindi - English] [MW]

seeders: 102
leechers: 89
updated:

Download Fast Safe Anonymous
movies, software, shows...
Summary:

Set in a world many thousands of years in the future. Earth’s cities now roam the globe on huge wheels, devouring each other in a struggle for ever diminishing resources. On one of these massive Traction Cities, Tom Natsworthy has an unexpected encounter with a mysterious young woman from the Outlands who will change the course of his life forever.

Files

Mortal Engines 2018 720p HDCAM x264 Dual Audio [Hindi - English] [MW]
  • Mortal Engines 2018 720p HDCAM x264 Dual Audio [Hindi - English] [MW].mkv (1.2 GB)

Description




General
Format : Matroska
Format version : Version 4 / Version 2
File size : 1.21 GiB
Duration : 1 h 58 min
Overall bit rate : 1 457 kb/s

Video
ID : 1
Format : AVC
Format/Info : Advanced Video Codec
Format profile : [email protected]
Format settings : CABAC / 4 Ref Frames
Format settings, CABAC : Yes
Format settings, RefFrames : 4 frames
Codec ID : V_MPEG4/ISO/AVC
Duration : 1 h 58 min
Bit rate : 1 200 kb/s
Width : 1 280 pixels
Height : 536 pixels
Display aspect ratio : 2.40:1
Frame rate mode : Constant
Frame rate : 29.970 (30000/1001) FPS
Color space : YUV
Chroma subsampling : 4:2:0
Bit depth : 8 bits
Scan type : Progressive
Bits/(Pixel*Frame) : 0.058
Stream size : 1 015 MiB (82%)
Writing library : x264 core 155 r2901 7d0ff22
Default : Yes
Forced : No

Audio #1
ID : 2
Format : AAC
Format/Info : Advanced Audio Codec
Format profile : LC
Codec ID : A_AAC-2
Duration : 1 h 58 min
Bit rate : 128 kb/s
Channel(s) : 2 channels
Channel positions : Front: L R
Sampling rate : 48.0 kHz
Frame rate : 46.875 FPS (1024 SPF)
Compression mode : Lossy
Stream size : 109 MiB (9%)
Language : Hindi
Default : No
Forced : No

Audio #2
ID : 3
Format : AAC
Format/Info : Advanced Audio Codec
Format profile : LC
Codec ID : A_AAC-2
Duration : 1 h 58 min
Bit rate : 128 kb/s
Channel(s) : 2 channels
Channel positions : Front: L R
Sampling rate : 48.0 kHz
Frame rate : 46.875 FPS (1024 SPF)
Compression mode : Lossy
Stream size : 109 MiB (9%)
Language : English
Default : No
Forced : No

Click To View Image








Related Torrents

torrent name size uploader age seed leech
2 GB tor2tor 13
days
10348 3029
1.1 GB tor2tor 13
days
8450 3097
1 GB MkvCage 23
days
1152 427
3.6 GB MrStark 23
days
915 441
4.2 GB mazemaze16 15
days
799 277


Download torrent
1.2 GB
seeders:102
leechers:89
Mortal Engines 2018 720p HDCAM x264 Dual Audio [Hindi - English] [MW]


Trackers

tracker name
udp://tracker.coppersurfer.tk:6969/announce
udp://tracker.pirateparty.gr:6969/announce
udp://tracker.tiny-vps.com:6969/announce
udp://9.rarbg.to:2730/announce
udp://tracker.opentrackr.org:1337/announce
udp://tracker.leechers-paradise.org:6969/announce
udp://public.popcorn-tracker.org:6969/announce
udp://tracker.vanitycore.co:6969/announce
µTorrent compatible trackers list

Download torrent
1.2 GB
seeders:102
leechers:89
Mortal Engines 2018 720p HDCAM x264 Dual Audio [Hindi - English] [MW]


Torrent hash: F1389CE9885BDEDD8DDE8474AF896522066E1E37
Johnny In The ... | Ch.9 - Read Online | Fiori artificiali